<?xml version="1.0" standalone="no"?>
<!DOCTYPE svg PUBLIC "-//W3C//DTD SVG 1.1//EN" "http://www.w3.org/Graphics/SVG/1.1/DTD/svg11.dtd" >
<svg xmlns="http://www.w3.org/2000/svg" xmlns:xlink="http://www.w3.org/1999/xlink" version="1.1">
<metadata>
Created by FontForge 20161116 at Fri Mar  7 13:38:58 2008
 By Jimmy Wärting
(c) 2005 by FontSmith  |  Designed by Phil Garnham (as written in specimen)  |  LOLA by Ray Davies (c) 1970 Davray Music Ltd and Carlin Music Corp
All rights reserved (used by permission)  |  PDF-eXtract made by uazero.
</metadata>
<defs>
<font id="FSLola" horiz-adv-x="527" >
  <font-face 
    font-family="FS Lola"
    font-weight="400"
    font-stretch="normal"
    units-per-em="1000"
    panose-1="2 0 5 0 5 0 0 2 0 4"
    ascent="750"
    descent="-250"
    x-height="485"
    cap-height="633"
    bbox="-24 -212 792 739"
    underline-thickness="50"
    underline-position="-100"
    stemh="57"
    stemv="77"
    unicode-range="U+0020-20AC"
  />
<missing-glyph horiz-adv-x="225" 
 />
    <glyph glyph-name=".notdef" horiz-adv-x="225" 
 />
    <glyph glyph-name=".null" horiz-adv-x="0" 
 />
    <glyph glyph-name="CR" horiz-adv-x="500" 
 />
    <glyph glyph-name="space" unicode=" " horiz-adv-x="500" 
 />
    <glyph glyph-name="percent" unicode="%" horiz-adv-x="817" 
d="M748 178c0 -115 -53 -187 -143 -187s-143 72 -143 187s53 187 143 187s143 -72 143 -187zM485 642h62l-216 -651h-62zM355 455c0 -115 -53 -187 -143 -187s-143 72 -143 187s53 187 143 187s143 -72 143 -187zM686 178c0 92 -31 139 -81 139s-82 -47 -82 -139
s32 -140 82 -140s81 48 81 140zM294 455c0 92 -32 140 -82 140s-81 -48 -81 -140s31 -139 81 -139s82 47 82 139z" />
    <glyph glyph-name="ampersand" unicode="&#x26;" horiz-adv-x="667" 
d="M633 64l-3 -52c-20 -12 -50 -21 -85 -21c-61 0 -103 30 -110 82c-33 -52 -94 -82 -170 -82c-128 0 -203 79 -203 191c0 83 47 153 127 175c-52 22 -81 72 -81 129c0 94 68 156 182 156c53 0 104 -11 140 -27l-3 -56c-35 18 -82 29 -124 29c-77 0 -121 -38 -121 -102
c0 -34 13 -62 37 -81s56 -28 107 -28h277v-54h-103v-190c0 -30 2 -52 12 -66c9 -14 26 -21 50 -21c25 0 53 9 71 18zM429 232v91h-125c-53 0 -89 -9 -115 -29c-31 -23 -48 -61 -48 -108c0 -80 52 -138 136 -138c63 0 104 27 127 66c18 30 25 69 25 118z" />
    <glyph glyph-name="parenleft" unicode="(" horiz-adv-x="293" 
d="M296 -164l-17 -27c-130 62 -192 230 -192 438s62 376 192 438l17 -26c-99 -75 -129 -199 -129 -412s30 -336 129 -411z" />
    <glyph glyph-name="parenright" unicode=")" horiz-adv-x="293" 
d="M206 247c0 -208 -62 -376 -192 -438l-17 27c99 75 129 198 129 411s-30 337 -129 412l17 26c130 -62 192 -230 192 -438z" />
    <glyph glyph-name="asterisk" unicode="*" horiz-adv-x="440" 
d="M384 388c0 -16 -15 -37 -32 -37c-11 0 -22 7 -30 14l-92 75l21 -116c1 -5 2 -10 2 -14c0 -21 -12 -32 -33 -32s-34 11 -34 32c0 4 1 9 2 14l21 116l-92 -75c-8 -7 -18 -14 -29 -14c-17 0 -32 21 -32 37c0 17 16 26 30 31l112 41l-112 41c-14 5 -30 14 -30 31
c0 16 15 37 32 37c11 0 21 -7 29 -14l92 -75l-21 116c-1 5 -2 10 -2 14c0 21 13 32 34 32s33 -11 33 -32c0 -4 -1 -9 -2 -14l-21 -116l92 75c8 7 19 14 30 14c17 0 32 -21 32 -37c0 -17 -16 -26 -30 -31l-112 -41l112 -41c14 -5 30 -14 30 -31z" />
    <glyph glyph-name="comma" unicode="," horiz-adv-x="230" 
d="M166 31c0 -57 -38 -121 -97 -155l-22 24c33 27 58 64 61 93c-26 6 -43 25 -43 49c0 26 18 47 48 47c33 0 53 -23 53 -58z" />
    <glyph glyph-name="period" unicode="." horiz-adv-x="230" 
d="M164 44c0 -27 -22 -49 -49 -49s-49 22 -49 49s22 48 49 48s49 -21 49 -48z" />
    <glyph glyph-name="slash" unicode="/" horiz-adv-x="541" 
d="M487 633l-371 -633h-86l373 633h84z" />
    <glyph glyph-name="zero" unicode="0" 
d="M470 317c0 -216 -72 -326 -206 -326s-206 110 -206 326s72 325 206 325s206 -109 206 -325zM388 317c0 181 -34 266 -124 266s-124 -85 -124 -266s34 -267 124 -267s124 86 124 267z" />
    <glyph glyph-name="one" unicode="1" 
d="M419 55v-55h-274v55h102v494l-98 -56l-29 51l155 89h49v-578h95z" />
    <glyph glyph-name="two" unicode="2" 
d="M167 59h291l-8 -59h-360v24c0 276 288 274 288 445c0 68 -36 114 -110 114c-61 0 -99 -33 -120 -96l-66 19c24 87 94 136 190 136c58 0 108 -17 140 -50c29 -30 45 -70 45 -123c0 -197 -279 -210 -290 -410z" />
    <glyph glyph-name="three" unicode="3" 
d="M461 183c0 -121 -82 -192 -222 -192c-58 0 -119 15 -157 37l4 66c39 -25 96 -44 150 -44c93 0 145 50 145 134c0 80 -64 118 -149 119v55c73 3 124 48 124 121c0 61 -35 104 -103 104c-60 0 -99 -30 -120 -88l-64 18c26 82 93 129 188 129c114 0 176 -66 176 -160
c0 -69 -36 -118 -91 -140c80 -20 119 -80 119 -159z" />
    <glyph glyph-name="four" unicode="4" 
d="M488 197v-62h-83v-135h-71v135h-266l-21 39l250 469l63 -32l-221 -414h195v123h71v-123h83z" />
    <glyph glyph-name="five" unicode="5" 
d="M458 198c0 -124 -73 -207 -218 -207c-54 0 -111 13 -149 34l4 62c39 -24 87 -37 137 -37c95 0 148 50 148 147c0 49 -13 82 -40 104s-68 30 -136 30h-97v302h304v-59h-240v-185h47c83 0 135 -10 175 -38c44 -31 65 -82 65 -153z" />
    <glyph glyph-name="six" unicode="6" 
d="M474 211c0 -126 -71 -220 -202 -220c-160 0 -206 139 -206 290c0 186 68 361 253 361c38 0 75 -7 106 -21l-2 -55c-28 13 -65 21 -99 21c-46 0 -85 -17 -113 -49c-37 -42 -52 -108 -60 -174c34 29 84 49 138 49c106 0 185 -59 185 -202zM396 210c0 108 -41 145 -119 145
c-45 0 -95 -22 -131 -56c0 -124 15 -252 129 -252c89 0 121 77 121 163z" />
    <glyph glyph-name="seven" unicode="7" 
d="M437 633l16 -39l-232 -594h-81l234 574h-299v59h362z" />
    <glyph glyph-name="eight" unicode="8" 
d="M470 166c0 -96 -60 -175 -202 -175c-129 0 -197 74 -197 179c0 75 51 140 124 167c-45 26 -94 72 -94 154c0 92 64 151 170 151c109 0 170 -56 170 -146c0 -74 -44 -125 -102 -154c69 -33 131 -79 131 -176zM374 489c0 61 -33 101 -104 101c-62 0 -100 -38 -100 -91
c0 -65 40 -100 112 -133c54 25 92 67 92 123zM395 165c0 73 -44 101 -144 145c-69 -25 -106 -74 -106 -138c0 -82 49 -125 125 -125c81 0 125 46 125 118z" />
    <glyph glyph-name="nine" unicode="9" 
d="M461 352c0 -186 -68 -361 -253 -361c-38 0 -75 7 -106 21l2 55c28 -13 65 -21 99 -21c46 0 85 17 113 49c37 42 52 108 60 174c-34 -29 -84 -49 -138 -49c-106 0 -185 59 -185 202c0 126 71 220 202 220c160 0 206 -139 206 -290zM381 334c0 124 -15 252 -129 252
c-89 0 -121 -77 -121 -163c0 -108 41 -145 119 -145c45 0 95 22 131 56z" />
    <glyph glyph-name="colon" unicode=":" horiz-adv-x="229" 
d="M163 333c0 -27 -22 -48 -49 -48s-48 21 -48 48s21 48 48 48s49 -21 49 -48zM163 44c0 -27 -22 -49 -49 -49s-48 22 -48 49s21 48 48 48s49 -21 49 -48z" />
    <glyph glyph-name="semicolon" unicode=";" horiz-adv-x="230" 
d="M162 333c0 -27 -22 -49 -49 -49s-48 22 -48 49s21 49 48 49s49 -22 49 -49zM166 31c0 -57 -38 -121 -97 -155l-22 24c33 27 58 64 61 93c-26 6 -43 25 -43 49c0 26 18 47 48 47c33 0 53 -23 53 -58z" />
    <glyph glyph-name="question" unicode="?" horiz-adv-x="475" 
d="M411 466c0 -102 -58 -160 -168 -176l-10 -105h-41l-9 145l11 1c93 8 141 48 141 133c0 72 -44 118 -113 118c-63 0 -100 -32 -116 -92l-64 14c18 90 92 138 182 138c120 0 187 -69 187 -176zM263 44c0 -27 -22 -49 -49 -49s-49 22 -49 49s22 48 49 48s49 -21 49 -48z" />
    <glyph glyph-name="A" unicode="A" horiz-adv-x="588" 
d="M334 633l228 -633h-84l-51 146h-259l-47 -146h-81l193 574h-58v59h159zM187 203h221l-101 289c-5 13 -12 36 -14 58h-1c-1 -22 -7 -45 -11 -58z" />
    <glyph glyph-name="B" unicode="B" horiz-adv-x="562" 
d="M515 181c0 -134 -87 -181 -240 -181h-190v574h-55v59h234c66 0 114 -7 153 -33c41 -27 61 -72 61 -123c0 -70 -27 -115 -80 -140c70 -18 117 -64 117 -156zM398 469c0 32 -12 67 -40 85c-24 16 -52 20 -102 20h-88v-220h89c55 0 88 7 111 28c20 19 30 48 30 87zM428 182
c0 37 -9 67 -31 86c-30 27 -72 32 -134 32h-95v-241h93c65 0 105 9 131 29s36 51 36 94z" />
    <glyph glyph-name="C" unicode="C" horiz-adv-x="544" 
d="M496 498l-76 -18c-18 61 -50 101 -119 101c-109 0 -167 -92 -167 -256c0 -154 40 -270 187 -270c57 0 122 20 162 46l-3 -66c-43 -26 -111 -44 -172 -44c-175 0 -261 119 -261 331c0 199 91 320 256 320c98 0 170 -49 193 -144z" />
    <glyph glyph-name="D" unicode="D" horiz-adv-x="611" 
d="M564 321c0 -135 -34 -223 -106 -272c-47 -32 -108 -49 -196 -49h-177v574h-55v59h213c79 0 129 -10 178 -32c95 -43 143 -125 143 -280zM477 324c0 122 -29 193 -104 227c-32 15 -75 23 -137 23h-68v-515h82c76 0 130 15 169 55c43 44 58 115 58 210z" />
    <glyph glyph-name="E" unicode="E" horiz-adv-x="507" 
d="M163 59h299l-8 -59h-374v633h360v-59h-277v-224h224v-57h-224v-234z" />
    <glyph glyph-name="F" unicode="F" horiz-adv-x="476" 
d="M440 633v-59h-277v-224h224v-57h-224v-293h-83v633h360z" />
    <glyph glyph-name="G" unicode="G" horiz-adv-x="594" 
d="M519 282v-282h-50l-16 39c-37 -27 -89 -48 -157 -48c-156 0 -249 111 -249 327c0 199 95 324 264 324c103 0 186 -51 207 -149l-77 -17c-19 64 -57 105 -133 105c-112 0 -174 -96 -174 -256c0 -167 50 -271 180 -271c51 0 96 19 125 43v130h-88v55h168z" />
    <glyph glyph-name="H" unicode="H" horiz-adv-x="610" 
d="M530 633v-633h-83v284h-284v-284h-83v633h83v-283h284v283h83z" />
    <glyph glyph-name="I" unicode="I" horiz-adv-x="355" 
d="M285 51v-51h-215v51h66v532h-66v50h215v-50h-66v-532h66z" />
    <glyph glyph-name="J" unicode="J" horiz-adv-x="406" 
d="M327 633v-449c0 -62 -7 -102 -28 -134c-26 -38 -74 -59 -143 -59c-34 0 -80 9 -112 22l4 61c25 -12 68 -22 101 -22c39 0 67 12 81 41c10 21 14 51 14 89v392h-168v59h251z" />
    <glyph glyph-name="K" unicode="K" horiz-adv-x="559" 
d="M541 63l-3 -53c-12 -8 -31 -15 -54 -15c-41 0 -65 17 -94 67l-129 223h-98v-285h-83v633h83v-284h100l154 284h82l-170 -312l137 -237c14 -24 24 -31 40 -31c13 0 26 4 35 10z" />
    <glyph glyph-name="L" unicode="L" horiz-adv-x="472" 
d="M163 59h282l-8 -59h-357v633h83v-574z" />
    <glyph glyph-name="M" unicode="M" horiz-adv-x="754" 
d="M674 633v-633h-73v492c-5 -24 -20 -68 -32 -98l-162 -394h-57l-170 404c-10 23 -23 60 -28 88v-492h-72v633h77l202 -475c9 -22 20 -55 22 -71h1c2 16 13 51 21 70l195 476h76z" />
    <glyph glyph-name="N" unicode="N" horiz-adv-x="625" 
d="M545 633v-633h-59l-300 439c-13 19 -28 44 -34 64v-503h-72v633h59l299 -436c16 -23 29 -47 35 -64v500h72z" />
    <glyph glyph-name="O" unicode="O" horiz-adv-x="596" 
d="M549 317c0 -206 -92 -326 -251 -326c-160 0 -251 120 -251 326s91 325 251 325c159 0 251 -119 251 -325zM462 317c0 184 -59 263 -164 263s-164 -79 -164 -263s59 -264 164 -264s164 80 164 264z" />
    <glyph glyph-name="P" unicode="P" horiz-adv-x="546" 
d="M512 436c0 -78 -26 -137 -83 -171c-39 -23 -91 -35 -163 -35h-98v-230h-83v574h-55v59h228c82 0 134 -11 175 -36c52 -32 79 -85 79 -161zM428 433c0 51 -15 91 -51 115c-27 18 -65 26 -118 26h-91v-288h79c113 0 181 25 181 147z" />
    <glyph glyph-name="Q" unicode="Q" horiz-adv-x="596" 
d="M549 317c0 -197 -84 -315 -230 -325c-6 -12 -9 -30 -9 -44c0 -17 6 -32 15 -41c12 -12 30 -17 50 -17c39 0 85 22 123 49l-5 -59c-32 -26 -82 -47 -138 -47c-39 0 -71 11 -91 31c-18 17 -27 41 -27 70c0 20 6 42 16 60c-132 21 -206 137 -206 323c0 206 91 325 251 325
c159 0 251 -119 251 -325zM462 317c0 184 -59 263 -164 263s-164 -79 -164 -263s59 -264 164 -264s164 80 164 264z" />
    <glyph glyph-name="R" unicode="R" horiz-adv-x="585" 
d="M543 64l-3 -53c-13 -8 -34 -16 -56 -16c-48 0 -68 22 -92 65l-104 188h-119v-248h-83v574h-56v59h241c85 0 140 -15 180 -46s61 -78 61 -138c0 -101 -48 -166 -141 -190l98 -177c12 -22 21 -29 36 -29c12 0 27 4 38 11zM428 444c0 44 -12 75 -34 96
c-27 25 -70 34 -131 34h-94v-269h109c109 0 150 55 150 139z" />
    <glyph glyph-name="S" unicode="S" horiz-adv-x="506" 
d="M458 165c0 -127 -102 -174 -216 -174c-61 0 -122 13 -171 34l3 68c50 -27 110 -42 167 -42c88 0 141 39 141 107c0 167 -314 93 -314 315c0 49 18 87 47 115c40 38 98 54 167 54c44 0 97 -10 136 -23l-3 -63c-41 15 -90 26 -137 26c-86 0 -134 -38 -134 -100
c0 -163 314 -88 314 -317z" />
    <glyph glyph-name="T" unicode="T" horiz-adv-x="493" 
d="M473 633v-59h-185v-574h-83v574h-185v59h453z" />
    <glyph glyph-name="U" unicode="U" horiz-adv-x="607" 
d="M528 633v-403c0 -74 -10 -122 -39 -163c-35 -50 -96 -76 -188 -76c-78 0 -135 19 -172 60c-36 39 -50 90 -50 171v411h83v-403c0 -67 8 -104 27 -132c22 -32 63 -47 114 -47c55 0 93 16 115 47c22 30 28 73 28 134v401h82z" />
    <glyph glyph-name="V" unicode="V" horiz-adv-x="534" 
d="M431 633h80l-205 -633h-86l-196 633h84l143 -475c7 -25 15 -55 15 -72h1c0 17 6 47 14 72z" />
    <glyph glyph-name="W" unicode="W" horiz-adv-x="816" 
d="M717 633h75l-180 -633h-79l-123 422l-126 -422h-77l-183 633h80l135 -473c6 -22 12 -49 12 -69h1c1 19 4 46 10 65l114 383l-28 94h78l135 -470c6 -20 13 -53 13 -72h1c1 20 7 51 13 72z" />
    <glyph glyph-name="X" unicode="X" horiz-adv-x="541" 
d="M513 64l-3 -53c-12 -9 -31 -16 -51 -16c-39 0 -63 16 -90 65l-111 200l-142 -260h-86l188 328l-173 305h91l136 -245l131 245h84l-176 -314l130 -235c14 -24 22 -31 40 -31c11 0 24 5 32 11z" />
    <glyph glyph-name="Y" unicode="Y" 
d="M431 633h78l-202 -412v-221h-83v223l-203 410h88l139 -282c12 -24 21 -48 23 -64h1c2 16 11 37 22 61z" />
    <glyph glyph-name="Z" unicode="Z" horiz-adv-x="499" 
d="M150 59h310l-9 -59h-397v43l300 531h-279v59h375v-43z" />
    <glyph glyph-name="bracketleft" unicode="[" horiz-adv-x="268" 
d="M249 -128v-57h-162v869h162v-57h-87v-755h87z" />
    <glyph glyph-name="bracketright" unicode="]" horiz-adv-x="268" 
d="M181 684v-869h-162v57h87v755h-87v57h162z" />
    <glyph glyph-name="a" unicode="a" horiz-adv-x="507" 
d="M479 60l-3 -50c-12 -8 -32 -14 -53 -14c-41 0 -66 18 -71 56c-25 -40 -79 -61 -132 -61c-100 0 -169 57 -169 159c0 98 64 164 192 164c40 0 81 -7 103 -13v26c0 37 -7 60 -23 79c-17 20 -49 33 -93 33c-50 0 -97 -13 -136 -32l-1 57c35 16 88 30 145 30
c67 0 119 -16 150 -51c24 -27 35 -63 35 -115v-235c0 -29 5 -42 26 -42c10 0 22 4 30 9zM346 175v73c-19 5 -59 12 -95 12c-92 0 -124 -45 -124 -106c0 -72 46 -108 103 -108c41 0 71 13 90 36c18 23 26 54 26 93z" />
    <glyph glyph-name="b" unicode="b" horiz-adv-x="525" 
d="M485 250c0 -160 -70 -259 -238 -259c-57 0 -119 11 -165 27v609h-56v57h133v-245c27 35 73 55 131 55c63 0 113 -25 145 -67s50 -103 50 -177zM407 248c0 47 -6 84 -18 114c-18 45 -52 73 -111 73c-46 0 -81 -19 -100 -50c-13 -21 -19 -47 -19 -85v-242
c21 -7 57 -13 85 -13c126 0 163 80 163 203z" />
    <glyph glyph-name="c" unicode="c" horiz-adv-x="459" 
d="M422 365l-70 -16c-14 55 -44 89 -101 89c-86 0 -133 -74 -133 -191c0 -121 43 -198 151 -198c48 0 97 17 134 43l-3 -60c-32 -23 -88 -41 -143 -41c-142 0 -217 92 -217 252c0 155 80 251 211 251c56 0 101 -18 133 -54c17 -19 31 -46 38 -75z" />
    <glyph glyph-name="d" unicode="d" horiz-adv-x="535" 
d="M504 60l-4 -50c-12 -8 -32 -14 -54 -14c-39 0 -65 17 -71 55c-26 -36 -71 -60 -132 -60c-139 0 -203 101 -203 232c0 84 23 156 69 205c40 42 101 66 175 66c33 0 64 -6 87 -14v147h-56v57h133v-592c0 -31 6 -41 26 -41c10 0 23 5 30 9zM371 202v223c-18 7 -51 14 -81 14
c-110 0 -172 -69 -172 -212c0 -103 40 -179 132 -179c50 0 87 25 104 62c13 28 17 55 17 92z" />
    <glyph glyph-name="e" unicode="e" horiz-adv-x="488" 
d="M442 266c0 -35 -12 -50 -48 -50h-276c6 -106 60 -167 154 -167c54 0 113 20 151 46l-3 -61c-36 -26 -102 -43 -158 -43c-148 0 -222 99 -222 249c0 163 83 254 210 254c117 0 192 -88 192 -228zM368 278c0 94 -39 161 -121 161c-76 0 -123 -58 -129 -170h242c6 0 8 4 8 9
z" />
    <glyph glyph-name="f" unicode="f" horiz-adv-x="319" 
d="M315 682v-55c-20 8 -45 13 -72 13c-26 0 -45 -6 -56 -20c-13 -15 -16 -35 -16 -73v-62h121v-57h-121v-428h-77v428h-72v57h72v67c0 48 9 84 32 108s58 36 105 36c27 0 61 -5 84 -14z" />
    <glyph glyph-name="g" unicode="g" horiz-adv-x="526" 
d="M451 461v-438c0 -87 -7 -131 -37 -170c-37 -48 -102 -65 -168 -65c-61 0 -120 15 -159 35l2 61c44 -24 97 -39 151 -39c44 0 84 13 107 41c21 25 27 58 27 125v45c-24 -33 -72 -57 -131 -57c-134 0 -201 89 -201 229c0 90 29 161 80 207c43 39 103 59 173 59
c55 0 113 -13 156 -33zM374 187v237c-22 10 -49 16 -79 16c-47 0 -87 -13 -117 -40c-39 -35 -58 -92 -58 -164c0 -103 36 -181 134 -181c38 0 68 13 88 34c22 23 32 56 32 98z" />
    <glyph glyph-name="h" unicode="h" horiz-adv-x="544" 
d="M470 311v-311h-77v302c0 49 -3 77 -25 101c-18 20 -47 30 -84 30c-42 0 -73 -13 -94 -37c-23 -26 -30 -59 -30 -116v-280h-77v684h77v-245c31 34 77 55 138 55c57 0 106 -19 135 -51c30 -34 37 -78 37 -132z" />
    <glyph glyph-name="i" unicode="i" horiz-adv-x="265" 
d="M173 621c0 -27 -23 -49 -50 -49s-48 22 -48 49s21 49 48 49s50 -22 50 -49zM224 60l-4 -50c-12 -8 -32 -14 -54 -14c-26 0 -46 8 -58 22s-17 34 -17 63v347h-56v57h133v-392c0 -32 6 -42 26 -42c10 0 23 5 30 9z" />
    <glyph glyph-name="j" unicode="j" horiz-adv-x="266" 
d="M192 621c0 -27 -22 -49 -49 -49s-49 22 -49 49s22 49 49 49s49 -22 49 -49zM187 485v-499c0 -59 -2 -93 -18 -126c-20 -43 -67 -65 -121 -65c-25 0 -52 4 -72 12l2 57c16 -7 37 -12 59 -12c33 0 53 12 63 36c9 20 10 52 10 97v443h-60v57h137z" />
    <glyph glyph-name="k" unicode="k" horiz-adv-x="493" 
d="M480 59l-2 -50c-11 -7 -31 -13 -49 -13c-39 0 -65 16 -88 57l-108 189h-74v-242h-77v627h-56v57h133v-383h74l126 184h80l-143 -209l110 -192c14 -24 25 -33 45 -33c10 0 21 3 29 8z" />
    <glyph glyph-name="l" unicode="l" horiz-adv-x="258" 
d="M216 60l-4 -50c-12 -8 -32 -14 -54 -14c-26 0 -46 8 -58 22s-17 34 -17 63v546h-56v57h133v-591c0 -32 6 -42 26 -42c10 0 23 5 30 9z" />
    <glyph glyph-name="m" unicode="m" horiz-adv-x="843" 
d="M769 311v-311h-77v302c0 49 -4 78 -25 101c-18 20 -46 30 -81 30c-38 0 -70 -12 -91 -36c-23 -26 -30 -61 -30 -117v-280h-77v302c0 49 -3 78 -24 101c-18 20 -46 30 -81 30c-38 0 -70 -12 -91 -36c-23 -26 -30 -61 -30 -117v-280h-77v428h-56v57h107l13 -58
c31 42 81 67 147 67c57 0 122 -22 149 -76c27 47 85 76 155 76c58 0 104 -20 132 -51c29 -32 37 -78 37 -132z" />
    <glyph glyph-name="n" unicode="n" horiz-adv-x="546" 
d="M472 311v-311h-77v302c0 49 -3 77 -25 101c-18 20 -47 30 -84 30c-42 0 -73 -13 -94 -37c-23 -26 -30 -59 -30 -116v-280h-77v428h-56v57h107l13 -59c31 44 79 68 151 68c57 0 106 -19 135 -51c30 -34 37 -78 37 -132z" />
    <glyph glyph-name="o" unicode="o" horiz-adv-x="506" 
d="M466 242c0 -161 -82 -251 -213 -251s-213 90 -213 251s82 252 213 252s213 -91 213 -252zM388 242c0 135 -51 196 -135 196s-135 -61 -135 -196s51 -195 135 -195s135 60 135 195z" />
    <glyph glyph-name="p" unicode="p" horiz-adv-x="528" 
d="M488 250c0 -154 -67 -259 -235 -259c-31 0 -64 5 -91 10v-200h-77v627h-56v57h110l13 -57c29 44 75 66 141 66c137 0 195 -105 195 -244zM410 248c0 129 -44 188 -128 188c-44 0 -74 -15 -93 -39c-20 -25 -27 -59 -27 -106v-233c26 -8 57 -13 87 -13
c124 0 161 78 161 203z" />
    <glyph glyph-name="q" unicode="q" horiz-adv-x="524" 
d="M475 -193l-73 -15c-18 28 -28 64 -28 121v140c-24 -36 -74 -62 -133 -62c-134 0 -201 99 -201 235c0 93 29 168 85 215c41 34 98 53 164 53c57 0 116 -13 162 -34v-514c0 -67 8 -106 24 -139zM374 185v238c-18 9 -52 16 -84 16c-47 0 -86 -13 -115 -40
c-39 -36 -57 -93 -57 -163c0 -100 36 -188 136 -188c39 0 69 14 89 37c21 25 31 58 31 100z" />
    <glyph glyph-name="r" unicode="r" horiz-adv-x="335" 
d="M305 492v-66c-5 1 -16 2 -26 2c-37 0 -67 -13 -86 -38c-23 -29 -31 -68 -31 -127v-263h-77v428h-56v57h109l14 -69c25 50 71 78 126 78c9 0 21 -1 27 -2z" />
    <glyph glyph-name="s" unicode="s" horiz-adv-x="425" 
d="M383 131c0 -81 -63 -140 -178 -140c-55 0 -110 13 -151 31l6 63c41 -24 94 -38 144 -38c70 0 108 32 108 76c0 56 -44 74 -119 100c-72 25 -135 53 -135 137c0 88 78 134 176 134c43 0 85 -8 117 -19v-61c-36 17 -75 25 -118 25c-66 0 -103 -29 -103 -72
c0 -46 40 -65 106 -88c81 -29 147 -57 147 -148z" />
    <glyph glyph-name="t" unicode="t" horiz-adv-x="343" 
d="M312 69l-1 -57c-22 -13 -60 -21 -92 -21c-42 0 -77 15 -97 40c-19 23 -25 55 -25 106v291h-72v57h72v127l77 26v-153h116v-57h-116v-289c0 -31 4 -53 14 -68s27 -22 51 -22c29 0 55 9 73 20z" />
    <glyph glyph-name="u" unicode="u" horiz-adv-x="548" 
d="M515 60l-3 -50c-12 -8 -32 -14 -54 -14c-38 0 -62 17 -70 56c-30 -36 -76 -61 -144 -61c-58 0 -106 19 -135 51c-30 34 -37 78 -37 132v311h77v-302c0 -50 3 -77 25 -101c18 -20 47 -30 84 -30c42 0 73 13 94 37c23 26 30 59 30 116v280h77v-391c0 -32 7 -43 27 -43
c11 0 22 5 29 9z" />
    <glyph glyph-name="v" unicode="v" horiz-adv-x="440" 
d="M358 485h72l-182 -485h-67l-170 485h80l104 -318c10 -29 19 -61 24 -88c4 28 16 64 25 90z" />
    <glyph glyph-name="w" unicode="w" horiz-adv-x="657" 
d="M577 485h69l-154 -485h-62l-96 292l-97 -292h-61l-165 485h78l100 -309c9 -27 18 -61 23 -87c4 24 13 58 24 90l68 204l-33 102h74l97 -309c9 -28 17 -63 21 -88c5 29 13 66 21 91z" />
    <glyph glyph-name="x" unicode="x" horiz-adv-x="440" 
d="M431 60l-2 -52c-12 -7 -29 -12 -48 -12c-37 0 -58 15 -82 55l-86 141l-129 -192h-75l169 247l-147 238h82l110 -181l119 181h73l-157 -236l105 -173c11 -18 21 -25 37 -25c12 0 23 4 31 9z" />
    <glyph glyph-name="y" unicode="y" horiz-adv-x="534" 
d="M459 485v-462c0 -87 -7 -131 -37 -170c-37 -48 -102 -65 -168 -65c-61 0 -120 15 -159 35l2 61c44 -24 97 -39 151 -39c44 0 84 13 107 41c21 25 27 58 27 125v36c-29 -34 -75 -56 -138 -56c-58 0 -106 19 -135 51c-30 34 -37 78 -37 132v311h77v-302
c0 -50 3 -77 25 -101c18 -20 47 -30 84 -30c42 0 73 13 94 37c23 26 30 59 30 116v280h77z" />
    <glyph glyph-name="z" unicode="z" horiz-adv-x="420" 
d="M135 58h253l-5 -58h-334v50l244 378h-239v57h325v-49z" />
    <glyph glyph-name="braceleft" unicode="{" horiz-adv-x="284" 
d="M254 -163v-41h-30c-78 0 -118 34 -118 114c0 60 5 161 5 228c0 54 -18 75 -64 82l-10 2v37l9 1c46 7 65 28 65 83c0 67 -5 168 -5 228c0 80 40 113 118 113h30v-40h-20c-42 0 -57 -18 -57 -62c0 -67 20 -158 20 -230c0 -59 -22 -96 -79 -112c57 -16 79 -52 79 -111
c0 -72 -20 -163 -20 -230c0 -44 15 -62 57 -62h20z" />
    <glyph glyph-name="braceright" unicode="}" horiz-adv-x="284" 
d="M247 259v-37l-10 -2c-46 -7 -64 -28 -64 -82c0 -67 5 -168 5 -228c0 -80 -40 -114 -118 -114h-30v41h20c42 0 57 18 57 62c0 67 -20 158 -20 230c0 59 22 95 79 111c-57 16 -79 53 -79 112c0 72 20 163 20 230c0 44 -15 62 -57 62h-20v40h30c78 0 118 -33 118 -113
c0 -60 -5 -161 -5 -228c0 -55 19 -76 65 -83z" />
    <glyph glyph-name="sterling" unicode="&#xa3;" 
d="M185 59h300l-7 -59h-387v48c51 30 84 77 84 134c0 40 -14 74 -31 110h-98v47h77c-18 38 -34 80 -34 131c0 108 82 172 191 172c111 0 175 -58 193 -157l-72 -12c-14 65 -48 106 -120 106c-71 0 -111 -45 -111 -105c0 -51 17 -91 39 -135h169v-47h-147
c14 -30 24 -62 24 -101c0 -62 -26 -100 -70 -132z" />
    <glyph glyph-name="afii10054" unicode="&#x405;" horiz-adv-x="506" 
d="M458 165c0 -127 -102 -174 -216 -174c-61 0 -122 13 -171 34l3 68c50 -27 110 -42 167 -42c88 0 141 39 141 107c0 167 -314 93 -314 315c0 49 18 87 47 115c40 38 98 54 167 54c44 0 97 -10 136 -23l-3 -63c-41 15 -90 26 -137 26c-86 0 -134 -38 -134 -100
c0 -163 314 -88 314 -317z" />
    <glyph glyph-name="afii10055" unicode="&#x406;" horiz-adv-x="355" 
d="M285 51v-51h-215v51h66v532h-66v50h215v-50h-66v-532h66z" />
    <glyph glyph-name="afii10057" unicode="&#x408;" horiz-adv-x="406" 
d="M327 633v-449c0 -62 -7 -102 -28 -134c-26 -38 -74 -59 -143 -59c-34 0 -80 9 -112 22l4 61c25 -12 68 -22 101 -22c39 0 67 12 81 41c10 21 14 51 14 89v392h-168v59h251z" />
    <glyph glyph-name="afii10017" unicode="&#x410;" horiz-adv-x="588" 
d="M334 633l228 -633h-84l-51 146h-259l-47 -146h-81l193 574h-58v59h159zM187 203h221l-101 289c-5 13 -12 36 -14 58h-1c-1 -22 -7 -45 -11 -58z" />
    <glyph glyph-name="afii10019" unicode="&#x412;" horiz-adv-x="562" 
d="M515 181c0 -134 -87 -181 -240 -181h-190v574h-55v59h234c66 0 114 -7 153 -33c41 -27 61 -72 61 -123c0 -70 -27 -115 -80 -140c70 -18 117 -64 117 -156zM398 469c0 32 -12 67 -40 85c-24 16 -52 20 -102 20h-88v-220h89c55 0 88 7 111 28c20 19 30 48 30 87zM428 182
c0 37 -9 67 -31 86c-30 27 -72 32 -134 32h-95v-241h93c65 0 105 9 131 29s36 51 36 94z" />
    <glyph glyph-name="afii10022" unicode="&#x415;" horiz-adv-x="507" 
d="M163 59h299l-8 -59h-374v633h360v-59h-277v-224h224v-57h-224v-234z" />
    <glyph glyph-name="afii10025" unicode="&#x417;" 
d="M461 183c0 -121 -82 -192 -222 -192c-58 0 -119 15 -157 37l4 66c39 -25 96 -44 150 -44c93 0 145 50 145 134c0 80 -64 118 -149 119v55c73 3 124 48 124 121c0 61 -35 104 -103 104c-60 0 -99 -30 -120 -88l-64 18c26 82 93 129 188 129c114 0 176 -66 176 -160
c0 -69 -36 -118 -91 -140c80 -20 119 -80 119 -159z" />
    <glyph glyph-name="afii10026" unicode="&#x418;" horiz-adv-x="625" 
d="M80 0v633h72v-500c6 17 19 41 35 64l299 436h59v-633h-72v503c-6 -20 -21 -45 -34 -64l-300 -439h-59z" />
    <glyph glyph-name="afii10028" unicode="&#x41a;" horiz-adv-x="559" 
d="M541 63l-3 -53c-12 -8 -31 -15 -54 -15c-41 0 -65 17 -94 67l-129 223h-98v-285h-83v633h83v-284h100l154 284h82l-170 -312l137 -237c14 -24 24 -31 40 -31c13 0 26 4 35 10z" />
    <glyph glyph-name="afii10030" unicode="&#x41c;" horiz-adv-x="754" 
d="M674 633v-633h-73v492c-5 -24 -20 -68 -32 -98l-162 -394h-57l-170 404c-10 23 -23 60 -28 88v-492h-72v633h77l202 -475c9 -22 20 -55 22 -71h1c2 16 13 51 21 70l195 476h76z" />
    <glyph glyph-name="afii10031" unicode="&#x41d;" horiz-adv-x="610" 
d="M530 633v-633h-83v284h-284v-284h-83v633h83v-283h284v283h83z" />
    <glyph glyph-name="afii10032" unicode="&#x41e;" horiz-adv-x="596" 
d="M549 317c0 -206 -92 -326 -251 -326c-160 0 -251 120 -251 326s91 325 251 325c159 0 251 -119 251 -325zM462 317c0 184 -59 263 -164 263s-164 -79 -164 -263s59 -264 164 -264s164 80 164 264z" />
    <glyph glyph-name="afii10034" unicode="&#x420;" horiz-adv-x="546" 
d="M512 436c0 -78 -26 -137 -83 -171c-39 -23 -91 -35 -163 -35h-98v-230h-83v574h-55v59h228c82 0 134 -11 175 -36c52 -32 79 -85 79 -161zM428 433c0 51 -15 91 -51 115c-27 18 -65 26 -118 26h-91v-288h79c113 0 181 25 181 147z" />
    <glyph glyph-name="afii10035" unicode="&#x421;" horiz-adv-x="544" 
d="M496 498l-76 -18c-18 61 -50 101 -119 101c-109 0 -167 -92 -167 -256c0 -154 40 -270 187 -270c57 0 122 20 162 46l-3 -66c-43 -26 -111 -44 -172 -44c-175 0 -261 119 -261 331c0 199 91 320 256 320c98 0 170 -49 193 -144z" />
    <glyph glyph-name="afii10036" unicode="&#x422;" horiz-adv-x="493" 
d="M473 633v-59h-185v-574h-83v574h-185v59h453z" />
    <glyph glyph-name="afii10039" unicode="&#x425;" horiz-adv-x="541" 
d="M513 64l-3 -53c-12 -9 -31 -16 -51 -16c-39 0 -63 16 -90 65l-111 200l-142 -260h-86l188 328l-173 305h91l136 -245l131 245h84l-176 -314l130 -235c14 -24 22 -31 40 -31c11 0 24 5 32 11z" />
    <glyph glyph-name="afii10049" unicode="&#x42f;" horiz-adv-x="585" 
d="M33 11l-3 53c11 -7 26 -11 38 -11c15 0 24 7 36 29l98 177c-93 24 -141 89 -141 190c0 60 21 107 61 138s95 46 180 46h241v-59h-56v-574h-83v248h-119l-104 -188c-24 -43 -44 -65 -92 -65c-22 0 -43 8 -56 16zM145 444c0 -84 41 -139 150 -139h109v269h-94
c-61 0 -104 -9 -131 -34c-22 -21 -34 -52 -34 -96z" />
    <glyph glyph-name="afii10065" unicode="&#x430;" horiz-adv-x="507" 
d="M479 60l-3 -50c-12 -8 -32 -14 -53 -14c-41 0 -66 18 -71 56c-25 -40 -79 -61 -132 -61c-100 0 -169 57 -169 159c0 98 64 164 192 164c40 0 81 -7 103 -13v26c0 37 -7 60 -23 79c-17 20 -49 33 -93 33c-50 0 -97 -13 -136 -32l-1 57c35 16 88 30 145 30
c67 0 119 -16 150 -51c24 -27 35 -63 35 -115v-235c0 -29 5 -42 26 -42c10 0 22 4 30 9zM346 175v73c-19 5 -59 12 -95 12c-92 0 -124 -45 -124 -106c0 -72 46 -108 103 -108c41 0 71 13 90 36c18 23 26 54 26 93z" />
    <glyph glyph-name="afii10070" unicode="&#x435;" horiz-adv-x="488" 
d="M442 266c0 -35 -12 -50 -48 -50h-276c6 -106 60 -167 154 -167c54 0 113 20 151 46l-3 -61c-36 -26 -102 -43 -158 -43c-148 0 -222 99 -222 249c0 163 83 254 210 254c117 0 192 -88 192 -228zM368 278c0 94 -39 161 -121 161c-76 0 -123 -58 -129 -170h242c6 0 8 4 8 9
z" />
    <glyph glyph-name="afii10074" unicode="&#x438;" horiz-adv-x="548" 
d="M515 60l-3 -50c-12 -8 -32 -14 -54 -14c-38 0 -62 17 -70 56c-30 -36 -76 -61 -144 -61c-58 0 -106 19 -135 51c-30 34 -37 78 -37 132v311h77v-302c0 -50 3 -77 25 -101c18 -20 47 -30 84 -30c42 0 73 13 94 37c23 26 30 59 30 116v280h77v-391c0 -32 7 -43 27 -43
c11 0 22 5 29 9z" />
    <glyph glyph-name="afii10076" unicode="&#x43a;" horiz-adv-x="493" 
d="M480 59l-2 -50c-11 -7 -31 -13 -49 -13c-39 0 -65 16 -88 57l-108 189h-74v-242h-77v428h-56v57h133v-184h74l126 184h80l-143 -209l110 -192c14 -24 25 -33 45 -33c10 0 21 3 29 8z" />
    <glyph glyph-name="afii10080" unicode="&#x43e;" horiz-adv-x="506" 
d="M466 242c0 -161 -82 -251 -213 -251s-213 90 -213 251s82 252 213 252s213 -91 213 -252zM388 242c0 135 -51 196 -135 196s-135 -61 -135 -196s51 -195 135 -195s135 60 135 195z" />
    <glyph glyph-name="afii10082" unicode="&#x440;" horiz-adv-x="528" 
d="M488 250c0 -154 -67 -259 -235 -259c-31 0 -64 5 -91 10v-200h-77v627h-56v57h110l13 -57c29 44 75 66 141 66c137 0 195 -105 195 -244zM410 248c0 129 -44 188 -128 188c-44 0 -74 -15 -93 -39c-20 -25 -27 -59 -27 -106v-233c26 -8 57 -13 87 -13
c124 0 161 78 161 203z" />
    <glyph glyph-name="afii10083" unicode="&#x441;" horiz-adv-x="459" 
d="M422 365l-70 -16c-14 55 -44 89 -101 89c-86 0 -133 -74 -133 -191c0 -121 43 -198 151 -198c48 0 97 17 134 43l-3 -60c-32 -23 -88 -41 -143 -41c-142 0 -217 92 -217 252c0 155 80 251 211 251c56 0 101 -18 133 -54c17 -19 31 -46 38 -75z" />
    <glyph glyph-name="afii10085" unicode="&#x443;" horiz-adv-x="534" 
d="M459 485v-462c0 -87 -7 -131 -37 -170c-37 -48 -102 -65 -168 -65c-61 0 -120 15 -159 35l2 61c44 -24 97 -39 151 -39c44 0 84 13 107 41c21 25 27 58 27 125v36c-29 -34 -75 -56 -138 -56c-58 0 -106 19 -135 51c-30 34 -37 78 -37 132v311h77v-302
c0 -50 3 -77 25 -101c18 -20 47 -30 84 -30c42 0 73 13 94 37c23 26 30 59 30 116v280h77z" />
    <glyph glyph-name="afii10087" unicode="&#x445;" horiz-adv-x="440" 
d="M431 60l-2 -52c-12 -7 -29 -12 -48 -12c-37 0 -58 15 -82 55l-86 141l-129 -192h-75l169 247l-147 238h82l110 -181l119 181h73l-157 -236l105 -173c11 -18 21 -25 37 -25c12 0 23 4 31 9z" />
    <glyph glyph-name="afii10102" unicode="&#x455;" horiz-adv-x="425" 
d="M383 131c0 -81 -63 -140 -178 -140c-55 0 -110 13 -151 31l6 63c41 -24 94 -38 144 -38c70 0 108 32 108 76c0 56 -44 74 -119 100c-72 25 -135 53 -135 137c0 88 78 134 176 134c43 0 85 -8 117 -19v-61c-36 17 -75 25 -118 25c-66 0 -103 -29 -103 -72
c0 -46 40 -65 106 -88c81 -29 147 -57 147 -148z" />
    <glyph glyph-name="afii10103" unicode="&#x456;" horiz-adv-x="265" 
d="M173 621c0 -27 -23 -49 -50 -49s-48 22 -48 49s21 49 48 49s50 -22 50 -49zM224 60l-4 -50c-12 -8 -32 -14 -54 -14c-26 0 -46 8 -58 22s-17 34 -17 63v347h-56v57h133v-392c0 -32 6 -42 26 -42c10 0 23 5 30 9z" />
    <glyph glyph-name="afii10105" unicode="&#x458;" horiz-adv-x="266" 
d="M192 621c0 -27 -22 -49 -49 -49s-49 22 -49 49s22 49 49 49s49 -22 49 -49zM187 485v-499c0 -59 -2 -93 -18 -126c-20 -43 -67 -65 -121 -65c-25 0 -52 4 -72 12l2 57c16 -7 37 -12 59 -12c33 0 53 12 63 36c9 20 10 52 10 97v443h-60v57h137z" />
    <glyph glyph-name="Euro" unicode="&#x20ac;" 
d="M509 498l-72 -18c-17 61 -48 101 -113 101c-88 0 -141 -67 -155 -187h154v-51h-158v-18c0 -11 1 -22 1 -32h157v-51h-153c14 -111 60 -187 173 -187c54 0 116 20 154 46l-3 -66c-40 -26 -106 -44 -164 -44c-144 0 -224 89 -243 251h-71v51h67c0 9 -1 19 -1 29
c0 7 1 14 1 21h-67v51h71c19 156 102 248 239 248c93 0 161 -48 183 -144z" />
    <glyph glyph-name="dollar" unicode="$" 
d="M459 165c0 -109 -74 -159 -167 -171v-102h-52v99c-60 0 -119 13 -168 34l3 68c49 -27 109 -42 165 -42v238c-83 31 -171 66 -171 184c0 49 18 87 47 115c31 30 74 46 124 52v99h52v-97c42 -1 91 -11 127 -23l-3 -63c-37 14 -81 24 -124 26v-230c82 -31 167 -68 167 -187z
M240 372v207c-61 -10 -95 -45 -95 -97c0 -60 42 -88 95 -110zM383 158c0 59 -40 88 -91 111v-213c58 13 91 48 91 102z" />
    <glyph glyph-name="exclam" unicode="!" horiz-adv-x="281" 
d="M187 595v-10l-29 -399h-36l-29 399v10c0 32 14 47 47 47s47 -15 47 -47zM189 44c0 -27 -22 -49 -49 -49s-48 22 -48 49s21 48 48 48s49 -21 49 -48z" />
    </font>
</defs>
</svg>
